Поиск

Авторизация

Логин:
Пароль:

Статистика

der_meister
Онлайн всего: 4
Гостей: 3
Пользователей: 1


Сегодня были:
DreAmer

Больше всех залили

  • sem1991 (7707)
  • covenua (3115)
  • serg-ronya (2096)
  • buka48213 (1710)
  • Gunmetal (1565)
  • Mad_333 (1322)
  • Psychosocial (1157)
  • Deathconect (932)
  • xScaryKiDx (427)
  • LAGVALLL (413)
  • Счетчики

    Яндекс.Метрика
    Портал Альтернативной Музыки
    8 bitAcousticAlternativeAmbientBlack
    BluesBreakBrutalChristianClassic
    ComedyCoreCrunkCyberDance
    DarkDeathDoomDubEBM
    EmoElectronicEpicExperimentalExtreme
    FunkFemale VocalFolkGarageGlam
    GrindGoreGothicGrungeHard
    HeavyIndieIndustrialInstrumentalNoise
    MartialMathJ-RockJazzMelodic
    MetalModernNintendoNuPiano
    Pop*PowerPornoPostProgressive
    PsychedelicPunkRap*RawRock
    ScreamoSkaSkateSlamSludge
    SoftSoulSouthernSpeedSymphonic
    SynthTechnicalTechnoThrashTrance
    ViolenceWaveКлипыКонцертыРазное

    Altworld.ru бесплатно mp3 клипы концерты

    Главная » Файлы » Мультимедия » Клипы

    Yashin - Runaway Train (Official Video)

    Скачать бесплатно Страна: Великобритания (Glasgow, UK)
    Жанр: Клипы

    Жанр: posthardcore
    Yashin - Runaway Train (Official Video)
    mp4Format : MPEG-4

    Рейтинг°:


    Сказали спасибо 0 человек.

    Ссылка 1
    Загрузка...

    Размер: 59.1 Mb

    Краткая биография:
    Format : AVC
    Format/Info : Advanced Video Codec
    Format profile : High@L3.1
    Format settings, CABAC : Yes
    Format settings, ReFrames : 1 frame
    Codec ID : avc1
    Codec ID/Info : Advanced Video Coding
    Duration : 3mn 59s
    Bit rate : 1 873 Kbps
    Maximum bit rate : 3 701 Kbps
    Width : 1 280 pixels
    Height : 540 pixels
    Display aspect ratio : 2.40:1
    Frame rate mode : Constant
    Frame rate : 25.000 fps
    Color space : YUV
    Chroma subsampling : 4:2:0
    Bit depth : 8 bits
    Scan type : Progressive
    Bits/(Pixel*Frame) : 0.108
    Stream size : 53.6 MiB (91%)
    Tagged date : UTC 2012-10-08 11:01:16 <br /><br /> Audio
    ID : 2
    Format : AAC
    Format/Info : Advanced Audio Codec
    Format profile : LC
    Codec ID : 40
    Duration : 3mn 59s
    Bit rate mode : Variable
    Bit rate : 192 Kbps
    Maximum bit rate : 203 Kbps
    Channel(s) : 2 channels
    Channel positions : Front: L R
    Sampling rate : 44.1 KHz
    Compression mode : Lossy
    Stream size : 5.49 MiB (9%)
    Title : IsoMedia File Prod <br /><br /> Yashin - post-hardcore, emocore группа из Великобритании (Glasgow, UK), образованная в 2006 году. <br /><br /> Дискография:
    [2007] Pay To Play (EP)
    [2008] Miles Away But Getting Closer (EP)
    [2010] Put Your Hands Where I Can See Them
    [2012] We Created A Monster
    [2012] Runaway Train (EP)
    + Demo, Unrealesed Tracks. <br /><br /> Состав:
    Harry Radford - Вокал
    Kevin Miles - Вокал
    Lewis Millen - Гитара
    Paul Travers - Гитара
    Andy McShane - Бас-гитара
    David Beaton - Ударные <br /><br /> Бывшие участники: <br /><br /> Paul McShane - Гитара
    Micheal Rice- Вокал
    Похожие материалы:
    Просмотров: 921 | Загрузок: 43 | Рейтинг: 5.0/1
    Всего комментариев: 0
    avatar

    ВКонтакте