Поиск

Авторизация

Логин:
Пароль:

Статистика

Онлайн всего: 4
Гостей: 4
Пользователей: 0


Сегодня были:
DreAmer

Больше всех залили

  • sem1991 (7725)
  • covenua (3116)
  • serg-ronya (2097)
  • buka48213 (1710)
  • Gunmetal (1565)
  • Mad_333 (1322)
  • Psychosocial (1157)
  • Deathconect (932)
  • xScaryKiDx (427)
  • LAGVALLL (413)
  • Счетчики

    Яндекс.Метрика
    Портал Альтернативной Музыки
    8 bitAcousticAlternativeAmbientBlack
    BluesBreakBrutalChristianClassic
    ComedyCoreCrunkCyberDance
    DarkDeathDoomDubEBM
    EmoElectronicEpicExperimentalExtreme
    FunkFemale VocalFolkGarageGlam
    GrindGoreGothicGrungeHard
    HeavyIndieIndustrialInstrumentalNoise
    MartialMathJ-RockJazzMelodic
    MetalModernNintendoNuPiano
    Pop*PowerPornoPostProgressive
    PsychedelicPunkRap*RawRock
    ScreamoSkaSkateSlamSludge
    SoftSoulSouthernSpeedSymphonic
    SynthTechnicalTechnoThrashTrance
    ViolenceWaveКлипыКонцертыРазное

    Altworld.ru бесплатно mp3 клипы концерты

    Главная » Файлы » Мультимедия » Клипы

    Eskimo Callboy - Cinema (Skrillex-Benny Benassi Cover) official

    Скачать бесплатно Страна: Кастроп-Рауксель, Германия
    Жанр: Клипы

    Жанр: posthardcore
    Video <br /><br /> ID : 1
    Format : AVC
    Format/Info : Advanced Video Codec
    Format profile : High@L3.1
    Format settings, CABAC : Yes
    Format settings, ReFrames : 1 frame
    Codec ID : avc1
    Codec ID/Info : Advanced Video Coding
    Duration : 3mn 31s
    Bit rate : 2 551 Kbps
    Maximum bit rate : 5 105 Kbps
    Width : 1 280 pixels
    Height : 720 pixels
    Display aspect ratio : 16:9
    Frame rate mode : Constant
    Frame rate : 23.976 fps
    Color space : YUV
    Chroma subsampling : 4:2:0
    Bit depth : 8 bits
    Scan type : Progressive
    Bits/(Pixel*Frame) : 0.115
    Stream size : 64.3 MiB (93%)
    Tagged date : UTC 2013-02-09 00:29:17 <br /><br /> Audio
    ID : 2
    Format : AAC
    Format/Info : Advanced Audio Codec
    Format profile : LC
    Codec ID : 40
    Duration : 3mn 31s
    Bit rate mode : Variable
    Bit rate : 192 Kbps
    Maximum bit rate : 202 Kbps
    Channel(s) : 2 channels
    Channel positions : Front: L R
    Sampling rate : 44.1 KHz
    Compression mode : Lossy
    Stream size : 4.84 MiB (7%)
    Title : IsoMedia File Produced by Google, 5-11-2011
    Encoded date : UTC 2013-02-09 00:29:17
    Tagged date : UTC 2013-02-09 00:

    Рейтинг°:


    Сказали спасибо 0 человек.

    Ссылка 1
    Загрузка...

    Размер: 64.3

    Краткая биография:
    Eskimo Callboy не имеет ничего общего с эскимосами и мальчиками легкого поведения, как вы поняли. Эта группа в 2010 основана 2 Даниэлями, Паскалем, Кевином и Михой во главе с Себастьяном ака Суши. <br /><br /> Пацаны ищут свою нотку, которая спряталась где-то между Attack! Attack! и Asking Alexandria. Также они полны желания привнести свежий потенциал в это направление. Дерзкие тексты, жёсткие брейкдауны, знобящее электро - всё в наличии. <br /><br /> В августе 2010 года был записан первый EP «Eskimo Callboy», состоящий из 6 треков. Ещё до релиза EP на MySpace были выложены две песни «Monsieur Moustache Versus Clitcat» и «Hey Mrs. Dramaqueen», которые набрали более 100 тысяч прослушиваний. Также был записан кавер на песню Katy Perry «California Gurls» и даже снят на него клип. <br /><br /> 9 декабря был выпущен первый сингл «Is Anyone Up», а так же клип на эту песню. Альбом «Bury Me in Vegas» вышел 23 марта 2012 года.
    Похожие материалы:
    Просмотров: 570 | Загрузок: 50 | Рейтинг: 5.0/4
    Всего комментариев: 0
    avatar

    ВКонтакте